<?xml version="1.0" standalone="no"?>
<!DOCTYPE svg PUBLIC "-//W3C//DTD SVG 1.1//EN" "http://www.w3.org/Graphics/SVG/1.1/DTD/svg11.dtd" >
<svg xmlns="http://www.w3.org/2000/svg">
<metadata>Generated by IcoMoon</metadata>
<defs>
<font id="Shopkeeper-Icon-Font" horiz-adv-x="1024">
<font-face units-per-em="1024" ascent="960" descent="-64" />
<missing-glyph horiz-adv-x="1024" />
<glyph unicode="&#x20;" horiz-adv-x="512" d="" />
<glyph unicode="&#xe900;" glyph-name="warning" d="M512 853.334c-235.648 0-426.667-191.019-426.667-426.667s191.019-426.667 426.667-426.667c235.648 0 426.667 191.019 426.667 426.667s-191.019 426.667-426.667 426.667zM512 768c188.501 0 341.333-152.832 341.333-341.333s-152.832-341.333-341.333-341.333c-188.501 0-341.333 152.832-341.333 341.333s152.832 341.333 341.333 341.333zM469.333 640v-256h85.333v256h-85.333zM469.333 298.667v-85.333h85.333v85.333h-85.333z" />
<glyph unicode="&#xe901;" glyph-name="arrow-left" d="M854.724 390.084h-585.322l186.766-165.584c15.404-13.48 17.328-38.51 3.848-53.914s-38.51-17.328-53.914-3.848l-261.856 232.972c-7.702 7.702-13.48 17.328-13.48 28.884s3.848 21.182 13.48 28.884l259.932 232.972c7.702 5.778 17.328 9.626 25.030 9.626 11.55 0 21.182-3.848 28.884-13.48 13.48-15.404 13.48-40.434-3.848-53.914l-184.842-165.584h585.322c21.182 0 38.51-17.328 38.51-38.51s-17.328-38.51-38.51-38.51z" />
<glyph unicode="&#xe902;" glyph-name="arrow-right" d="M169.276 390.084h585.322l-186.766-165.584c-15.404-13.48-17.328-38.51-3.848-53.914s38.51-17.328 53.914-3.848l261.856 232.972c7.702 7.702 13.48 17.328 13.48 28.884s-3.848 21.182-13.48 28.884l-259.932 232.972c-7.702 5.778-17.328 9.626-25.030 9.626-11.55 0-21.182-3.848-28.884-13.48-13.48-15.404-13.48-40.434 3.848-53.914l184.842-165.584h-585.322c-21.182 0-38.51-17.328-38.51-38.51s17.328-38.51 38.51-38.51z" />
<glyph unicode="&#xe903;" glyph-name="view" d="M512 768c-341.333 0-469.333-341.333-469.333-341.333s128-341.333 469.333-341.333c341.333 0 469.333 341.333 469.333 341.333s-128 341.333-469.333 341.333zM512 682.667c225.109 0 338.969-182.063 375.833-255.833-36.907-73.259-151.62-256.167-375.833-256.167-225.109 0-338.969 182.063-375.833 255.833 36.949 73.259 151.62 256.167 375.833 256.167zM512 597.334c-94.251 0-170.667-76.416-170.667-170.667s76.416-170.667 170.667-170.667c94.251 0 170.667 76.416 170.667 170.667s-76.416 170.667-170.667 170.667zM512 512c47.147 0 85.333-38.187 85.333-85.333s-38.187-85.333-85.333-85.333c-47.147 0-85.333 38.187-85.333 85.333s38.187 85.333 85.333 85.333z" />
<glyph unicode="&#xe904;" glyph-name="heart-full" horiz-adv-x="1120" d="M559.844 38.753c33.454 33.448 224.435 224.536 343.828 343.916 106.965 106.977 104.686 262.895 7.432 359.623-97.254 96.755-254.515 96.327-351.259-0.932-96.739 97.264-253.996 97.687-351.251 0.932-97.254-96.728-99.528-252.646 7.432-359.623 119.385-119.378 310.39-310.467 343.822-343.916z" />
<glyph unicode="&#xe905;" glyph-name="heart" horiz-adv-x="1170" d="M585.389 21.328c-10.738 0.048-20.435 4.47-27.403 11.576l-363.65 369.827c-44.584 45.836-72.078 108.495-72.078 177.575s27.493 131.739 72.135 177.634c44.459 45.684 106.62 74.059 175.403 74.059 0.067 0 0.128 0 0.195 0h-0.010c0.558 0.006 1.215 0.009 1.872 0.009 68.549 0 130.505-28.225 174.883-73.693l38.652-38.653 38.602 38.602c44.484 45.515 106.488 73.735 175.089 73.735 0.466 0 0.935-0.002 1.399-0.005h-0.071c0.101 0 0.219 0 0.335 0 68.544 0 130.501-28.225 174.874-73.684 44.632-45.883 72.125-108.542 72.125-177.625s-27.493-131.739-72.135-177.634l-362.428-370.148c-7.012-7.151-16.772-11.581-27.569-11.581-0.080 0-0.16 0-0.238 0.001zM369.982 754.791v0c-47.228-0.011-89.9-19.523-120.403-50.915-31.066-31.92-50.2-75.512-50.2-123.569s19.134-91.649 50.2-123.569l335.81-341.599 335.849 342.025c31.027 31.879 50.161 75.471 50.161 123.531s-19.134 91.649-50.2 123.569c-30.481 31.175-73.016 50.532-120.073 50.532-0.253 0-0.504-0.001-0.753-0.002h0.039c-47.228-0.011-89.9-19.523-120.403-50.915l-67.21-68.369c-6.976-7.114-16.673-11.535-27.4-11.581h-0.010c-10.738 0.048-20.435 4.47-27.403 11.576l-67.561 68.335c-30.543 31.436-73.214 50.944-120.439 50.956z" />
<glyph unicode="&#xe906;" glyph-name="menu" d="M896.32 648.215h-700.824c-24.864 0-45.216 20.344-45.216 45.216s20.344 45.216 45.216 45.216h700.824c24.864 0 45.216-20.344 45.216-45.216s-20.344-45.216-45.216-45.216zM896.32 381.447h-768.64c-24.864 0-45.216 20.344-45.216 45.216s20.344 45.216 45.216 45.216h768.64c24.864 0 45.216-20.344 45.216-45.216s-20.344-45.216-45.216-45.216zM896.32 114.687h-610.392c-24.864 0-45.216 20.344-45.216 45.216s20.344 45.216 45.216 45.216h610.392c24.864 0 45.216-20.344 45.216-45.216s-20.344-45.216-45.216-45.216z" />
<glyph unicode="&#xe907;" glyph-name="search" d="M503.36 80.276c-101.711 0-195.753 38.381-266.752 111.304-147.77 147.77-147.77 387.658 0 535.428 71.008 71.008 166.965 111.304 266.752 111.304s195.753-38.381 266.752-111.304c147.77-147.77 147.77-387.658 0-535.428-71.008-71.008-165.041-111.304-266.752-111.304zM503.36 759.635c-80.601 0-155.448-30.703-213.024-88.279-117.067-117.067-117.067-308.972 0-426.039 57.576-57.576 132.414-88.279 213.024-88.279s155.448 30.703 213.024 88.279c117.067 117.067 117.067 308.972 0 426.039-57.576 57.576-132.414 88.279-213.024 88.279zM892.933 15.022c-9.593 0-19.195 3.839-26.864 11.517l-151.609 151.609c-15.356 15.356-15.356 38.381 0 53.737s38.381 15.356 53.737 0l151.609-151.609c15.356-15.356 15.356-38.381 0-53.737-7.678-7.678-17.271-11.517-26.864-11.517z" />
<glyph unicode="&#xe908;" glyph-name="cart-shopkeeper" d="M392.534 81.066c0-40.059-32.474-72.533-72.533-72.533s-72.533 32.474-72.533 72.533c0 40.059 32.474 72.533 72.533 72.533s72.533-32.474 72.533-72.533zM883.201 81.066c0-40.059-32.474-72.533-72.533-72.533s-72.533 32.474-72.533 72.533c0 40.059 32.474 72.533 72.533 72.533s72.533-32.474 72.533-72.533zM1015.468 686.933c-8.533 12.8-21.333 21.333-38.4 21.333h-533.333c-21.333 0-38.4-21.333-38.4-38.4s21.333-38.4 38.4-38.4h469.333l-98.133-251.733-473.6-59.733-128 494.933c0 21.333-17.067 29.867-38.4 29.867h-132.267c-25.6 0-42.667-21.333-42.667-38.4s21.333-42.667 42.667-42.667h98.133l128-503.467c4.267-21.333 21.333-29.867 38.4-29.867h8.533l533.333 68.267c17.067 0 25.6 8.533 34.133 25.6l132.267 332.8c8.533 0 8.533 21.333 0 29.867z" />
<glyph unicode="&#xe909;" glyph-name="coupon" d="M64 768v-640h896v640zM128 704h768v-512h-768zM605 640l-263-384h77l263 384zM384 608c-35 0-64-29-64-64s29-64 64-64c35 0 64 29 64 64s-29 64-64 64zM640 416c-35 0-64-29-64-64s29-64 64-64c35 0 64 29 64 64s-29 64-64 64z" />
<glyph unicode="&#xe90a;" glyph-name="user-account" d="M512.001 938.661c-281.595 0-511.994-228.43-511.994-511.994 0-133.915 53.163-257.972 137.851-348.551 1.968-1.968 3.937-3.937 3.937-5.906 92.547-96.499 224.494-157.536 368.25-157.536 281.595 0 511.994 228.43 511.994 511.994 1.968 281.595-228.43 511.994-510.025 511.994zM512.001-8.527c-100.436 0-194.952 35.448-267.815 92.547 112.246 39.384 161.473 86.642 181.172 122.089 23.636-7.874 49.227-13.779 78.768-13.779h7.874c31.51 0 59.083 5.906 82.705 15.748 5.906-9.843 11.811-21.667 23.636-33.478 33.478-37.416 86.642-66.957 159.505-92.547-72.862-55.133-165.411-90.579-265.846-90.579zM350.528 533.009v0c5.906 149.662 108.31 165.411 153.6 165.411 1.968 0 1.968 0 3.937 0s1.968 0 3.937 0c0 0 1.968 0 3.937 0 43.321 0 145.726-15.748 153.6-163.442v-1.968c3.937-39.384 3.937-157.536-51.195-220.556-25.605-29.542-59.083-43.321-104.373-43.321v0 0c-45.29 0-78.768 13.779-104.373 43.321-74.832 74.832-59.083 218.588-59.083 220.556zM840.867 143.104c-147.694 39.384-175.267 90.579-181.172 106.342 3.937 3.937 7.874 7.874 11.811 11.811 84.674 96.499 72.862 259.94 70.894 277.657-7.874 173.299-127.995 236.305-228.43 236.305-1.968 0-3.937 0-3.937 0-1.968 0-1.968 0-3.937 0-100.436 0-220.556-61.051-228.43-236.305-1.968-17.717-15.748-181.172 70.894-277.657 3.937-5.906 9.843-9.843 15.748-15.748-1.968-3.937-5.906-9.843-13.779-17.717-21.667-21.667-66.957-55.133-165.411-84.674-64.989 76.8-104.373 175.267-104.373 281.595 0 240.241 194.952 435.194 435.194 435.194s435.194-194.952 435.194-435.194c-3.937-106.342-43.321-204.795-110.278-281.595z" />
<glyph unicode="&#xe90b;" glyph-name="spk_error" d="M512 853.334c-235.136 0-426.667-191.531-426.667-426.667s191.531-426.667 426.667-426.667c235.136 0 426.667 191.531 426.667 426.667s-191.531 426.667-426.667 426.667zM512 768c189.019 0 341.333-152.315 341.333-341.333s-152.315-341.333-341.333-341.333c-189.019 0-341.333 152.315-341.333 341.333s152.315 341.333 341.333 341.333zM371.5 627.5l-60.333-60.333 140.5-140.5-140.5-140.5 60.333-60.333 140.5 140.5 140.5-140.5 60.333 60.333-140.5 140.5 140.5 140.5-60.333 60.333-140.5-140.5-140.5 140.5z" />
<glyph unicode="&#xe90c;" glyph-name="spk_check" d="M512 853.334c-235.136 0-426.667-191.531-426.667-426.667s191.531-426.667 426.667-426.667c235.136 0 426.667 191.531 426.667 426.667s-191.531 426.667-426.667 426.667zM512 768c189.019 0 341.333-152.315 341.333-341.333s-152.315-341.333-341.333-341.333c-189.019 0-341.333 152.315-341.333 341.333s152.315 341.333 341.333 341.333zM695.167 584.834l-268.5-268.5-97.833 97.833-60.333-60.333 158.167-158.167 328.833 328.833-60.333 60.333z" />
<glyph unicode="&#xe90d;" glyph-name="diamond" horiz-adv-x="819" d="M811.706 560.912c0 0-1.039 0-1.039 1.039l-178.993 175.872h-445.402l-178.993-175.872c0 0-1.039 0-1.039-1.039-6.243-6.243-6.243-15.609-1.039-21.853l389.209-418.344c3.122-3.122 7.283-5.204 11.448-5.204 1.039 0 2.082 0 3.122 1.039 1.039 0 2.082-1.039 3.122-1.039 4.162 0 8.326 2.082 11.448 5.204l389.209 418.344c6.243 6.243 5.204 15.609-1.039 21.853zM186.269 694.114l31.218-128.002h-162.341l131.123 128.002zM408.972 706.605l130.084-141.528h-265.368l130.084 141.528h5.204zM522.403 464.129l-116.553-271.612-115.514 271.612-26.017 69.723h283.059l-24.975-69.723zM569.231 593.17l-4.162-10.405-114.471 123.84h145.693l-27.057-113.432zM246.627 581.725l-4.162 11.448-27.057 113.432h146.732l-115.514-124.88zM226.857 533.855l146.732-345.499-321.565 345.499h174.832zM585.882 533.855h180.034l-331.97-355.904 151.936 355.904zM762.793 565.074h-167.546l32.261 133.206 135.285-133.206z" />
<glyph unicode="&#xe90e;" glyph-name="load-more" horiz-adv-x="819" d="M111.556 538.221c-61.355 0-111.555-50.2-111.555-111.555s50.2-111.555 111.555-111.555c61.355 0 111.555 50.2 111.555 111.555s-50.2 111.555-111.555 111.555zM409.036 538.221c-61.355 0-111.555-50.2-111.555-111.555s50.2-111.555 111.555-111.555c61.355 0 111.555 50.2 111.555 111.555s-50.2 111.555-111.555 111.555zM706.516 538.221c-61.355 0-111.555-50.2-111.555-111.555s50.2-111.555 111.555-111.555c25.099 0 49.271 8.367 67.863 23.241 8.367 6.507 9.296 17.663 3.719 26.030s-17.663 9.296-26.030 3.719v0c-12.086-9.296-27.889-15.803-44.622-15.803-40.904 0-74.37 33.466-74.37 74.37s33.466 74.37 74.37 74.37c40.904 0 74.37-33.466 74.37-74.37 0-10.226 8.367-18.593 18.593-18.593s18.593 8.367 18.593 18.593c0 0 0 0 0 0.929-0.929 60.426-51.129 110.626-112.485 110.626zM111.556 501.036c40.904 0 74.37-33.466 74.37-74.37s-33.466-74.37-74.37-74.37c-40.904 0-74.37 33.466-74.37 74.37 0 41.833 33.466 74.37 74.37 74.37zM409.036 501.036c40.904 0 74.37-33.466 74.37-74.37s-33.466-74.37-74.37-74.37c-40.904 0-74.37 33.466-74.37 74.37 0 41.833 33.466 74.37 74.37 74.37z" />
<glyph unicode="&#xe90f;" glyph-name="sync" d="M512 810.667c-211.75 0-384-172.25-384-384h64c0 176.5 143.5 320 320 320 118.25 0 221.625-64.375 277-160h-117v-64h224v224h-64v-109c-68.625 104.125-186.25 173-320 173zM832 426.667c0-176.5-143.5-320-320-320-118.25 0-221.625 64.375-277 160h117v64h-224v-224h64v109c68.625-104.125 186.25-173 320-173 211.75 0 384 172.25 384 384z" />
<glyph unicode="&#xe910;" glyph-name="checked" d="M695.2 621.2l-268.533-268.4-97.867 97.867-60.267-60.267 158.133-158.267 328.8 328.8-60.267 60.267z" />
<glyph unicode="&#xe911;" glyph-name="video-player" horiz-adv-x="819" d="M355.715 309.317v0c-20.781 0-37.894 17.113-37.894 37.894v135.686c0 20.781 17.113 37.894 37.894 37.894 6.112 0 12.224-1.222 17.113-4.89l128.351-68.454c12.224-6.112 19.558-19.558 19.558-33.005s-7.334-26.893-19.558-33.005l-128.351-68.454c-4.89-2.445-11.002-3.667-17.113-3.667zM355.715 495.121c-6.112 0-13.446-4.89-13.446-13.446v-135.686c0-8.557 7.334-13.446 13.446-13.446v0c2.445 0 3.667 0 6.112 1.222l128.351 68.454c4.89 2.445 7.334 6.112 7.334 12.224s-2.445 9.779-7.334 12.224l-128.351 68.454c-2.445 0-3.667 0-6.112 0zM719.988 145.517h-620.975c-20.781 0-37.894 17.113-37.894 37.894v486.512c0 20.781 17.113 37.894 37.894 37.894h620.975c20.781 0 37.894-17.113 37.894-37.894v-486.512c0-20.781-17.113-37.894-37.894-37.894zM99.012 683.369c-7.334 0-13.446-6.112-13.446-13.446v-486.512c0-7.334 6.112-13.446 13.446-13.446h620.975c7.334 0 13.446 6.112 13.446 13.446v486.512c0 7.334-6.112 13.446-13.446 13.446h-620.975zM-0.002 622.25h24.448v-391.166h-24.448v391.166zM794.554 622.25h24.448v-391.166h-24.448v391.166z" />
<glyph unicode="&#xe912;" glyph-name="Add_2" d="M469.333 810.667v-341.333h-341.333v-85.333h341.333v-341.333h85.333v341.333h341.333v85.333h-341.333v341.333h-85.333z" />
<glyph unicode="&#xe913;" glyph-name="Remove_2" d="M128 469.334v-85.333h768v85.333h-768z" />
<glyph unicode="&#xe914;" glyph-name="down-small" horiz-adv-x="1159" d="M408.512 477.102l148.212-148.212c1.651-1.651 3.303-2.477 4.954-4.128 0.826-0.826 1.651-0.826 2.477-1.651s2.477-0.826 3.303-1.651 2.477-0.826 3.303-0.826 1.651-0.826 3.303-0.826 4.128-0.826 5.78-0.826c0 0 0 0 0.826 0v0c1.651 0 4.128 0 5.78 0.826 0.826 0 1.651 0.826 2.477 0.826s2.477 0.826 3.303 0.826c0.826 0.826 2.477 0.826 3.303 1.651s1.651 0.826 2.477 1.651 3.303 2.477 4.954 4.128c0 0 0 0 0.826 0l148.212 149.038c13.074 13.074 13.074 33.578 0 46.652-6.606 6.606-14.725 9.771-22.982 9.771s-16.376-3.303-22.982-9.771l-104.588-105.139c-11.835-11.973-31.239-11.973-43.211 0l-104.588 105.139c-6.606 6.606-14.725 9.771-22.982 9.771-6.468 0-12.798-2.064-18.441-6.055-16.927-11.835-18.303-36.468-3.716-51.193z" />
<glyph unicode="&#xe915;" glyph-name="left-small" horiz-adv-x="1159" d="M629.936 597.656l-148.212-148.212c-1.651-1.651-2.477-3.303-4.128-4.954-0.826-0.826-0.826-1.651-1.651-2.477s-0.826-2.477-1.651-3.303-0.826-2.477-0.826-3.303-0.826-1.651-0.826-3.303c0-1.651-0.826-4.128-0.826-5.78 0 0 0 0 0-0.826v0c0-1.651 0-4.128 0.826-5.78 0-0.826 0.826-1.651 0.826-2.477s0.826-2.477 0.826-3.303c0.826-0.826 0.826-2.477 1.651-3.303s0.826-1.651 1.651-2.477 2.477-3.303 4.128-4.954c0 0 0 0 0-0.826l149.038-148.212c13.074-13.074 33.578-13.074 46.652 0 6.606 6.606 9.771 14.725 9.771 22.982s-3.303 16.376-9.771 22.982l-105.139 104.588c-11.973 11.835-11.973 31.239 0 43.211l105.139 104.588c6.606 6.606 9.771 14.725 9.771 22.982 0 6.468-2.064 12.798-6.055 18.441-11.835 16.927-36.468 18.303-51.193 3.716z" />
<glyph unicode="&#xe916;" glyph-name="right-small" horiz-adv-x="1159" d="M529.065 255.678l148.212 148.212c1.651 1.651 2.477 3.303 4.128 4.954 0.826 0.826 0.826 1.651 1.651 2.477s0.826 2.477 1.651 3.303 0.826 2.477 0.826 3.303 0.826 1.651 0.826 3.303c0 1.651 0.826 4.128 0.826 5.78 0 0 0 0 0 0.826v0c0 1.651 0 4.128-0.826 5.78 0 0.826-0.826 1.651-0.826 2.477s-0.826 2.477-0.826 3.303c-0.826 0.826-0.826 2.477-1.651 3.303s-0.826 1.651-1.651 2.477-2.477 3.303-4.128 4.954c0 0 0 0 0 0.826l-149.038 148.212c-13.074 13.074-33.578 13.074-46.652 0-6.606-6.606-9.771-14.725-9.771-22.982s3.303-16.376 9.771-22.982l105.139-104.588c11.973-11.835 11.973-31.239 0-43.211l-105.139-104.588c-6.606-6.606-9.771-14.725-9.771-22.982 0-6.468 2.064-12.798 6.055-18.441 11.835-16.927 36.468-18.303 51.193-3.716z" />
<glyph unicode="&#xe917;" glyph-name="up-small" horiz-adv-x="1159" d="M750.488 376.232l-148.212 148.212c-1.651 1.651-3.303 2.477-4.954 4.128-0.826 0.826-1.651 0.826-2.477 1.651s-2.477 0.826-3.303 1.651c-0.826 0.826-2.477 0.826-3.303 0.826s-1.651 0.826-3.303 0.826c-1.651 0-4.128 0.826-5.78 0.826 0 0 0 0-0.826 0v0c-1.651 0-4.128 0-5.78-0.826-0.826 0-1.651-0.826-2.477-0.826s-2.477-0.826-3.303-0.826c-0.826-0.826-2.477-0.826-3.303-1.651s-1.651-0.826-2.477-1.651-3.303-2.477-4.954-4.128c0 0 0 0-0.826 0l-148.212-149.038c-13.074-13.074-13.074-33.578 0-46.652 6.606-6.606 14.725-9.771 22.982-9.771s16.376 3.303 22.982 9.771l104.588 105.139c11.835 11.973 31.239 11.973 43.211 0l104.588-105.139c6.606-6.606 14.725-9.771 22.982-9.771 6.468 0 12.798 2.064 18.441 6.055 16.927 11.835 18.303 36.468 3.716 51.193z" />
<glyph unicode="&#xe918;" glyph-name="close" horiz-adv-x="819" d="M674.92 690.039c-20.48 20.48-54.886 20.48-75.366 0l-190.054-190.874-190.874 190.874c-20.48 20.48-54.886 20.48-75.366 0s-20.48-54.886 0-75.366l190.874-190.874-190.874-190.054c-20.48-20.48-20.48-54.886 0-75.366 10.65-10.65 23.757-15.565 37.683-15.565s27.034 4.915 37.683 15.565l190.874 190.874 190.874-190.874c10.65-10.65 23.757-15.565 37.683-15.565s27.034 4.915 37.683 15.565c20.48 20.48 20.48 54.886 0 75.366l-190.874 190.054 190.874 190.874c20.48 21.299 20.48 54.886-0.819 75.366z" />
<glyph unicode="&#xe919;" glyph-name="menu-filters" d="M127.68 205.119h700.824c24.864 0 45.216-20.344 45.216-45.216s-20.344-45.216-45.216-45.216h-700.824c-24.864 0-45.216 20.344-45.216 45.216s20.344 45.216 45.216 45.216zM127.68 471.887h768.64c24.864 0 45.216-20.344 45.216-45.216s-20.344-45.216-45.216-45.216h-768.64c-24.864 0-45.216 20.344-45.216 45.216s20.344 45.216 45.216 45.216zM127.68 738.647h610.392c24.864 0 45.216-20.344 45.216-45.216s-20.344-45.216-45.216-45.216h-610.392c-24.864 0-45.216 20.344-45.216 45.216s20.344 45.216 45.216 45.216z" />
<glyph unicode="&#xe91a;" glyph-name="close-thin-large" horiz-adv-x="819" d="M147.448 168.038c5.462-5.462 12.283-8.19 19.109-8.19s13.647 2.728 19.109 8.19l223.829 223.829 223.829-223.829c5.462-5.462 12.283-8.19 19.109-8.19s13.647 2.728 19.109 8.19c10.919 10.919 10.919 27.294 0 38.213l-223.829 225.193 212.91 212.91c10.919 10.919 10.919 27.294 0 38.213s-27.294 10.919-38.213 0l-212.91-212.91-212.91 212.91c-10.919 10.919-27.294 10.919-38.213 0s-10.919-27.294 0-38.213l212.91-212.91-223.829-223.829c-10.919-10.919-10.919-28.663 0-39.582z" />
<glyph unicode="&#xe91b;" glyph-name="down-arrow-thin-large" horiz-adv-x="819" d="M663.071 580.286l-253.571-253.571-253.571 253.571c-10.733 10.733-26.833 10.733-37.566 0s-10.733-26.833 0-37.566l272.354-272.354c5.368-5.368 12.074-8.050 18.783-8.050s13.415 2.682 18.783 8.050l272.354 272.354c10.733 10.733 10.733 26.833 0 37.566s-28.174 10.733-37.566 0z" />
<glyph unicode="&#xe91c;" glyph-name="left-arrow-thin-large" horiz-adv-x="819" d="M561.53 711.486c-10.264 10.264-25.659 10.264-35.923 0l-268.142-268.142c-10.264-10.264-10.264-25.659 0-35.923l268.142-268.142c5.132-5.132 11.548-7.695 17.964-7.695s12.832 2.563 17.964 7.695c10.264 10.264 10.264 25.659 0 35.923l-250.179 250.179 250.179 250.179c10.264 10.264 10.264 25.659 0 35.923z" />
<glyph unicode="&#xe91d;" glyph-name="right-arrow-thin-large" horiz-adv-x="819" d="M257.464 139.281c5.132-5.132 11.548-7.695 17.964-7.695s12.832 2.563 17.964 7.695l268.142 268.142c10.264 10.264 10.264 25.659 0 35.923l-268.142 268.142c-10.264 10.264-25.659 10.264-35.923 0s-10.264-25.659 0-35.923l250.179-250.179-250.179-250.179c-10.264-10.264-10.264-25.659 0-35.923z" />
<glyph unicode="&#xe91e;" glyph-name="up-arrow-thin-large" horiz-adv-x="819" d="M392.113 581.139l-272.834-271.496c-10.7-10.7-10.7-26.749 0-37.449s26.749-10.7 37.449 0l252.773 252.773 252.773-252.773c5.35-5.35 12.038-8.023 18.723-8.023s13.373 2.673 18.723 8.023c10.7 10.7 10.7 26.749 0 37.449l-270.157 271.496c-10.7 10.7-28.084 10.7-37.449 0z" />
<glyph unicode="&#xe920;" glyph-name="icon-arrow-right" d="M558.933 674.134l-59.733-64 140.8-140.8h-422.4v-85.333h422.4l-140.8-140.8 59.733-64 247.467 247.467z" />
<glyph unicode="&#xe921;" glyph-name="icon-message" d="M170.75 810.667c-46.637 0-85.333-38.696-85.333-85.333v-512c0-46.637 38.696-85.333 85.333-85.333h597.333l170.667-170.667-0.5 768.083c0 46.637-38.748 85.25-85.333 85.25h-682.167zM170.75 725.334h682.167l0.333-561.833-49.833 49.833h-632.667v512zM298.667 597.334v-85.333h426.667v85.333h-426.667zM298.667 426.667v-85.333h298.667v85.333h-298.667z" />
<glyph unicode="&#xe923;" glyph-name="icon-like-it" horiz-adv-x="1158" d="M478.25 897.417l-37.833-166.583-154.25-130.833c-19.108-16.208-30.167-40.059-30.167-65.083v-406.917c0-46.637 38.696-85.333 85.333-85.333h368.417c32.156 0 61.715 18.268 76.167 46.917l145.75 289c4.711 9.159 7 19.275 7 29.167v104.25c0 46.637-38.696 85.333-85.333 85.333h-194.75c12.031 37.417 24.083 85.908 24.083 133.833 0 74.056-46.339 122.599-87.667 143.167s-81.25 21.667-81.25 21.667l-35.5 1.417zM543.917 801.5c6.005-1.808 6.736-0.425 13.083-3.583 22.672-11.283 40.333-23.814 40.333-66.75 0-59.243-39.333-159.917-39.333-159.917l-25-59.25h320.333v-99.167l-143.583-284.833h-368.417v406.917l176 149.333 26.583 117.25zM85.333 597.334v-554.667h85.333v554.667h-85.333z" />
<glyph unicode="&#xe925;" glyph-name="quote-left" d="M475.429 390.096v-219.429q0-45.714-32-77.714t-77.714-32h-219.429q-45.714 0-77.714 32t-32 77.714v402.286q0 59.429 23.143 113.429t62.571 93.429 93.429 62.571 113.429 23.143h36.571q14.857 0 25.714-10.857t10.857-25.714v-73.143q0-14.857-10.857-25.714t-25.714-10.857h-36.571q-60.571 0-103.429-42.857t-42.857-103.429v-18.286q0-22.857 16-38.857t38.857-16h128q45.714 0 77.714-32t32-77.714zM987.429 390.096v-219.429q0-45.714-32-77.714t-77.714-32h-219.429q-45.714 0-77.714 32t-32 77.714v402.286q0 59.429 23.143 113.429t62.571 93.429 93.429 62.571 113.429 23.143h36.571q14.857 0 25.714-10.857t10.857-25.714v-73.143q0-14.857-10.857-25.714t-25.714-10.857h-36.571q-60.571 0-103.429-42.857t-42.857-103.429v-18.286q0-22.857 16-38.857t38.857-16h128q45.714 0 77.714-32t32-77.714z" />
<glyph unicode="&#xe926;" glyph-name="Document_3" d="M938.667 533.334h-256v256h42.667v-213.333h213.333zM960 42.667h-896v768h648.8l247.2-247.2v-520.8zM106.667 85.334h810.667v460.533l-222.133 222.133h-588.533v-682.667zM448 426.667h-256v256h256v-256zM234.667 469.334h170.667v170.667h-170.667v-170.667zM192 341.334h597.333v-42.667h-597.333v42.667zM192 213.334h512v-42.667h-512v42.667z" />
<glyph unicode="&#xe92d;" glyph-name="used-product" d="M221.44 960c-5.2-1.040-9.76-4-12.8-8.32l-120.96-161.28c-0.48-0.64-0.88-1.28-1.28-1.92l-0.64-0.64c-0.24-0.4-0.48-0.88-0.64-1.28-0.24-0.24-0.4-0.4-0.64-0.64 0-0.24 0-0.4 0-0.64-0.24-0.4-0.48-0.88-0.64-1.28-0.24-0.24-0.4-0.4-0.64-0.64 0-0.4 0-0.88 0-1.28-0.24-0.24-0.4-0.4-0.64-0.64 0-0.4 0-0.88 0-1.28-0.24-0.24-0.4-0.4-0.64-0.64 0-0.4 0-0.88 0-1.28 0-0.24 0-0.4 0-0.64 0-0.4 0-0.88 0-1.28 0-0.24 0-0.4 0-0.64-0.080-1.040-0.080-2.16 0-3.2v-160.64c0-1.76 0.24-3.44 0.64-5.12l39.68-158.72-39.68-158.72c-0.4-1.68-0.64-3.36-0.64-5.12v-327.68c0-11.28 9.2-20.48 20.48-20.48h163.84c0.88-0.080 1.68-0.080 2.56 0l324.48 40.32 159.36-39.68c1.68-0.4 3.36-0.64 5.12-0.64h163.84c11.28 0 20.48 9.2 20.48 20.48v245.76c-0.080 2.16-0.48 4.32-1.28 6.4l-51.2 148.48 51.84 208.64c0.4 1.68 0.64 3.36 0.64 5.12v202.24c0.080 0.88 0.080 1.68 0 2.56 0 0.64 0 1.28 0 1.92-0.48 3.44-1.76 6.8-3.84 9.6 0 0.24 0 0.4 0 0.64l-122.88 163.84c-3.92 5.28-10.080 8.4-16.64 8.32h-573.44c-0.64 0-1.28 0-1.92 0s-1.28 0-1.92 0zM235.52 919.040h241.92c-1.44-6.080-2.48-12.16-1.92-17.92 1.76-17.2 9.84-30.4 16-42.24s11.36-22.48 12.8-33.28c1.12-8.48 0.16-17.52-5.12-29.44h-355.84zM521.6 919.040h266.88l92.16-122.88h-338.56c3.040 12.32 3.92 23.84 2.56 34.56-2.48 19.28-10.24 35.12-16.64 47.36s-10.96 21.2-11.52 26.88c-0.48 4.4 0.16 8 5.12 14.080zM122.88 755.2h778.24v-181.76l-51.84-208.64c-0.56-1.44-1.040-2.96-1.28-4.48l-28.16-112c-2.8-10.96 3.76-22.16 14.72-24.96s22.16 3.76 24.96 14.72l12.16 47.36 29.44-85.76v-222.72h-140.8l-154.88 38.4c-1.2 0.56-2.56 0.96-3.84 1.28h-1.28l-1.28 0.64c-0.64 0.24-1.28 0.48-1.92 0.64l-119.68 39.68c-3.28 1.28-6.8 1.76-10.24 1.28-9.28-1.68-16.16-9.44-16.8-18.8-0.64-9.44 5.28-18 14.24-20.88l37.76-12.8-236.16-29.44h-143.36v304.64l40.32 161.28c0.88 3.36 0.88 6.88 0 10.24l-40.32 161.28zM512 679.68c-32 0-68.4-5.92-71.68-6.4-0.16 0-3.2 0-3.2 0v-1.28c-26.64-1.92-48-22.8-48-49.92 0-28.32 22.88-51.2 51.2-51.2h143.36c28.32 0 51.2 22.88 51.2 51.2 0 27.12-21.36 48-48 49.92v1.28c0 0-3.040 0-3.2 0-3.28 0.48-39.68 6.4-71.68 6.4zM512 638.72c28 0 68.48-6.4 68.48-6.4 1.040-0.080 2.16-0.080 3.2 0 4.4 0 10.24-5.84 10.24-10.24s-5.84-10.24-10.24-10.24h-143.36c-4.4 0-10.24 5.84-10.24 10.24s5.84 10.24 10.24 10.24c1.040-0.080 2.16-0.080 3.2 0 0 0 40.48 6.4 68.48 6.4z" />
</font>
</defs>
</svg>
